#TITLE:BadX;
#SUBTITLE:;
#ARTIST:Techno Sensation;
#TITLETRANSLIT:BadX;
#SUBTITLETRANSLIT:;
#ARTISTTRANSLIT:Techno Sensation;
#CREDIT:9-11-2008;
#BANNER:BadX-bn.png;
#BACKGROUND:BadX-bg.png;
#LYRICSPATH:;
#CDTITLE:pm4cd.png;
#MUSIC:BadX.mp3;
#OFFSET:0.020;
#SAMPLESTART:52.020;
#SAMPLELENGTH:20.000;
#SELECTABLE:YES;
#BPMS:0.000=146.010;
#STOPS:;
#BGCHANGES:;
// cache tags:
#FIRSTBEAT:6.000;
#LASTBEAT:481.000;
#SONGFILENAME:Songs/Music V.I.P ^_^/BadX/BadX.sm;
#HASMUSIC:1;
#HASBANNER:1;
#MUSICLENGTH:201.120;
// end cache tags

//---------------dance-single - ----------------
#NOTES:
     dance-single:
     :
     Hard:
     14:
     1.000,1.000,1.000,0.070,0.721,1081.000,347.000,14.000,0.000,8.000:
0000
0000
0000
0000
,
0000
0000
2000
0000
,
0020
3000
0000
0230
,
0000
0320
0002
0100
,
0100
0000
0100
0000
0133
0000
0000
0010
0000
0000
0001
0000
0000
0010
0000
0000
,
0100
0000
0010
0000
2001
0000
0000
0100
0000
0000
0010
0000
0000
0001
0000
0000
,
0100
0000
0001
0000
0010
0000
0000
0100
0000
0000
0010
0000
0000
0001
0000
0000
,
0010
0000
0001
0000
3100
0010
0100
0010
0100
0010
0100
0010
0100
0010
0100
0010
,
0100
0010
0100
0010
0100
0000
0000
0001
0110
0000
1000
0000
0000
0001
0000
0000
,
0110
0000
1000
0000
0001
0000
0000
0010
1001
0000
0100
0000
0000
0010
0000
0000
,
0101
0000
1000
0000
0001
0000
0000
0001
1010
0000
0100
0000
0000
1000
0000
0000
,
0011
0000
1000
0000
0100
0000
0000
1000
0011
0000
0100
0000
0000
1000
0000
0000
,
0110
0000
0001
0000
0010
0000
0000
1000
0101
0000
0010
0000
0000
1000
0000
0000
,
0101
0000
1000
0000
0010
0000
0000
0001
0110
0000
0010
0000
0000
0100
0000
0000
,
1001
0000
0010
0000
0100
0000
0000
0001
1100
0000
0100
0000
0000
0010
0000
0000
,
1100
0000
0010
0000
1000
0001
1000
0001
1000
0001
1000
0001
1000
0001
1000
0001
,
1000
0001
1000
0001
1000
0000
0000
0000
0110
0000
0000
0000
1000
0000
0000
0000
,
0101
0010
1100
0100
,
0011
0100
1010
0100
,
1100
0010
0011
1000
,
0101
0010
1001
0010
,
1100
0100
0011
0010
,
1010
0100
0101
0010
,
1010
0000
0000
0000
1001
0001
0001
0001
0101
0001
0001
0001
1001
0001
0001
0001
,
0101
0001
0001
0001
1000
0000
0000
0000
0110
0000
0000
0000
0010
0000
0000
0000
,
1001
0010
1100
0010
,
0110
0001
1001
0100
,
1010
0100
0110
1000
,
0101
0010
1100
0010
,
1001
0100
1100
0010
,
0101
0010
1100
0010
,
0110
0000
0000
0010
0000
0000
0110
0000
0000
0010
0000
0000
1001
0000
0000
0000
0000
0000
1001
0000
0000
0000
0000
0000
1001
0000
0000
0000
0000
0000
0000
0000
0000
0000
0010
0000
0100
0000
0010
0000
0100
0000
0010
0000
0100
0000
0010
0000
,
0100
0010
0100
0010
0100
0010
0101
0000
0000
0010
0000
0000
1100
0000
0000
0001
0000
0000
0110
0000
0000
1000
0000
0000
,
0101
0010
1100
0001
1010
0100
1100
0010
,
0110
1000
0011
0100
1010
0100
1100
0010
,
0110
0000
0010
0000
0011
0000
0100
0100
1100
0000
0001
0001
0011
1000
1000
1000
,
1010
0100
0100
0100
0101
0000
0010
0000
1100
0000
0010
0000
0110
0000
0001
0000
,
0011
0010
1001
0100
1010
0010
0110
0001
,
1010
0100
1010
0001
0110
1000
0011
0010
,
1100
0000
0010
0000
0101
0001
0001
0001
1001
0001
0001
0001
1010
0010
0010
0010
,
0011
0010
0010
0010
1010
0000
0100
0000
1100
0000
0010
0000
0101
0000
1000
0000
,
0101
0010
1100
0010
0110
0001
1010
0100
,
1100
0001
1010
0100
1100
0010
0110
0001
,
0011
0010
1010
0010
0101
1000
0110
0010
,
1100
0010
0110
0001
1010
0100
1010
0010
,
0101
0010
0110
1000
0011
0100
1010
0010
,
0110
0001
0101
0100
1010
0010
0110
0001
,
1010
0000
0100
0000
0001
0001
0001
0001
0001
0001
0001
0001
0001
0001
0001
0001
,
0001
0001
0001
0001
0201
0000
0000
0010
0000
0000
1000
0000
0000
0010
0000
0000
,
0001
0000
1000
0000
0010
0000
0000
0001
0000
0000
0010
0000
0000
1000
0000
0000
,
0010
0000
0001
0000
2300
0000
0000
0001
0000
0000
0100
0000
0000
0010
0000
0000
,
0001
0000
0010
0000
0100
0000
0000
0001
0000
0000
0100
0000
0000
0010
0000
0000
,
0100
0000
0010
0000
3012
0000
0000
0100
0000
0000
1000
0000
0000
0010
0000
0000
,
0100
0000
1000
0000
0100
0000
0000
0010
0000
0000
1000
0000
0000
0100
0000
0000
,
1000
0000
0010
0000
0203
0000
0000
0010
0000
0000
0001
0000
0000
1000
0000
0000
,
0010
0000
0001
0000
1300
0010
1000
0010
1000
0010
1000
0010
1000
0010
1000
0010
,
1000
0010
1000
0010
1200
0000
0000
0010
0000
0000
0001
0000
0000
0010
0000
0000
,
1000
0000
0010
0000
0302
0000
0000
0010
0000
0000
0100
0000
0000
1000
0000
0000
,
0010
0000
1100
0000
1023
0000
0000
0100
0000
0000
0001
0000
0000
1000
0000
0000
,
0001
0000
0100
0000
2030
0000
0000
0001
0000
0000
0010
0000
0000
0001
0000
0000
,
0100
0010
3101
0000
0010
0000
1100
0000
,
1000
0101
0010
1001
,
0001
0110
1000
1100
,
0010
0000
0000
0000
1001
1000
1000
1000
1010
1000
1000
1000
1001
1000
1000
1000
,
1010
1000
1000
1000
0001
0010
0100
1000
0110
0001
0010
0001
0010
0100
0010
0100
,
1001
0010
0100
1000
0010
0001
0010
0001
1100
0001
0010
0100
0010
0001
1000
0001
,
0110
1000
0100
0010
0001
0100
0010
0100
1001
0010
0100
1000
0100
0010
0001
0100
,
1010
0001
0010
0001
0100
1000
0100
1000
0110
1000
0010
0100
1000
0100
0010
1000
,
0101
1000
0100
0100
0010
0100
1000
0001
1100
0010
0001
0100
0010
0001
0010
0100
,
1001
0100
0010
0001
0100
0010
0100
0001
1100
0001
0010
0100
0010
0100
1000
0010
,
0101
1000
0100
0001
0010
0001
0010
0001
1100
0010
0100
0001
0010
0100
1000
0001
,
0110
0000
0000
0010
0000
0000
0110
0000
0000
0010
0000
0000
1001
0000
0000
0000
0000
0000
1001
0000
0000
0000
0000
0000
1001
0000
0000
0000
0000
0000
0000
0000
0000
0000
0010
0000
0100
0000
0010
0000
0100
0000
0010
0000
0100
0000
0010
0000
,
0100
0010
0100
0010
0100
0010
0101
0000
0000
0010
0000
0000
1100
0000
0000
0001
0000
0000
0110
0000
0000
1000
0000
0000
,
0101
0010
1100
0001
1010
0100
1100
0010
,
0110
1000
0011
0100
1010
0100
1100
0010
,
0110
0000
0010
0000
0011
0000
0100
0100
1100
0000
0001
0001
0011
1000
1000
1000
,
1010
0100
0100
0100
0101
0000
0010
0000
1100
0000
0010
0000
0110
0000
0001
0000
,
0011
0010
1001
0100
1010
0010
0110
0001
,
1010
0100
1010
0001
0110
1000
0011
0010
,
1100
0000
0010
0000
0101
0001
0001
0001
1001
0001
0001
0001
1010
0010
0010
0010
,
0011
0010
0010
0010
1010
0000
0100
0000
1100
0000
0010
0000
0101
0000
1000
0000
,
0101
0010
1100
0010
0110
0001
1010
0100
,
1100
0001
1010
0100
1100
0010
0110
0001
,
0011
0010
1010
0010
0101
1000
0110
0010
,
1100
0010
0110
0001
1010
0100
1010
0010
,
0101
0010
0110
1000
0011
0100
1010
0010
,
0110
0001
0101
0100
1010
0010
0110
0001
,
1010
0000
0100
0000
0001
0001
0001
0001
0001
0001
0001
0001
0001
0001
0001
0001
,
0001
0001
0001
0001
0101
0000
0010
0000
1000
0000
0011
0000
0100
0000
0001
0000
,
0010
1000
0110
0001
0100
0011
1000
0010
,
0100
0001
0110
1000
0001
0110
0001
0010
,
1000
0010
0110
0001
1000
0110
1000
0001
,
0010
1000
0110
0001
0110
1000
0110
0001
,
0101
1000
0011
0100
1001
1000
0110
0100
,
1001
0010
1001
0010
0110
1000
0110
1000
,
0011
0000
0100
0000
0001
0001
0001
0001
0011
0010
0010
0010
0110
0100
0100
0100
,
1100
1000
1000
1000
1001
0000
0100
0000
1100
0000
0010
0000
0101
0000
0010
0000
,
1010
0100
1100
0010
0110
0001
1010
0100
,
0011
0010
1010
0100
1001
0010
1100
0010
,
0101
0010
1100
0010
0110
0001
0011
0100
,
1010
0001
0101
0010
1001
0010
0110
1000
,
0101
0010
1100
0010
0101
1000
0101
0001
,
1100
0010
0101
1000
1010
0010
0101
0010
,
1100
0000
0001
0000
1100
0011
1100
0011
1100
0011
1100
0011
1100
0011
1100
0011
,
1100
0011
1100
0011
1100
0000
0010
0000
0101
0000
0010
0000
1100
0000
0001
0000
,
1001
0100
1010
0100
1100
0001
0110
0010
,
1001
0100
1100
0010
0110
0001
0110
0100
,
1100
0001
0110
0100
1010
0001
0110
0010
,
1001
0010
1100
0010
0110
0001
0110
0100
,
1010
0001
0110
1000
0101
0010
1100
0100
,
1010
0001
1010
0100
1100
0010
0011
0100
,
1010
0000
0001
0000
1010
0101
1010
0101
1010
0101
1010
0101
1010
0101
1010
0101
,
1010
0101
1010
0101
1010
0100
1000
0010
0101
0010
0100
1000
0001
0100
0010
1000
,
0110
1000
0001
0100
1000
0001
0100
0010
1001
0100
1000
0010
0100
0010
0001
1000
,
0110
0001
1000
0010
0100
0001
0010
1000
0101
0010
1000
0010
1000
0100
0001
0010
,
1100
0010
0100
0001
1000
0100
1000
0010
0101
1000
0010
0100
0001
0010
1000
0100
,
1001
0010
0100
0010
1000
0010
0100
0001
1100
0010
0100
1000
0010
0100
0001
0010
,
1100
0001
0100
0010
0100
1000
0001
0100
0011
1000
0100
0010
1000
0010
0100
0001
,
1010
0100
1000
0010
0001
0100
1000
0010
0101
1000
0010
0100
0010
1000
0010
0100
,
0011
0100
1000
0001
0110
0110
0110
0110
0110
0110
0110
0110
0110
0110
0110
0110
,
0110
0110
0110
0110
0110
0000
0000
0000
0000
0000
0000
0000
0000
0000
0000
0000
;
